Aufnahme WebTV funktioniert nicht mehr

Entwicklung
Antworten
PauleFoul
Wissender
Wissender
Beiträge: 1839
Registriert: Sonntag 17. August 2003, 00:39

Aufnahme WebTV funktioniert nicht mehr

Beitrag von PauleFoul »

Hallo zusammen,

seit etwa zwei Monaten funktioniert die Aufnahme von WebTV Inhalten nicht mehr.

Die Box stürzt mit folgendem Fehler ab:

Code: Alles auswählen

[0mInput #0, hls,applehttp, from 'https://daserstehdde-lh.akamaihd.net/i/daserstehd_de@629196/index_3776_av-p.m3u8':
  Duration: N/A, start: 15102.372756, bitrate: N/A
  Program 0 
    Metadata:
      variant_bitrate : 0
    Stream #0:0: Video: h264 (High) ([27][0][0][0] / 0x001B), yuv420p(tv, bt709), 1280x720 [SAR 1:1 DAR 16:9], 50 fps, 50 tbr, 90k tbn, 100 tbc
    Metadata:
      variant_bitrate : 0
    Stream #0:1: Audio: aac (LC) ([15][0][0][0] / 0x000F), 48000 Hz, stereo, fltp
    Metadata:
      variant_bitrate : 0
    Stream #0:2: Data: timed_id3 (ID3  / 0x20334449)
    Metadata:
      variant_bitrate : 0
[1]    4242 segmentation fault  neutrino
Was könnte die Ursache dafür sein?
dbt
Administrator
Beiträge: 2653
Registriert: Donnerstag 28. September 2006, 18:18
Kontaktdaten:

Re: Aufnahme WebTV funktioniert nicht mehr

Beitrag von dbt »

Ja, das Problem ist bestätigt. Es wird vermutet, dass es möglicherweise seit einer der letzten ffmpeg-Änderungen so ist, genauer weis ich es aber auch nicht. WebTV nutzte ich so gut wie nie.
PauleFoul
Wissender
Wissender
Beiträge: 1839
Registriert: Sonntag 17. August 2003, 00:39

Re: Aufnahme WebTV funktioniert nicht mehr

Beitrag von PauleFoul »

Schade, wenn es niemand außer mir nutzt wird es wohl auch nicht gefixt werden... :cry:

Für mich eine schöne Lösung um die "normalen" Tuner freizuhalten und Sendungen im ÖR aufzunehmen...
Knicko
Neugieriger
Neugieriger
Beiträge: 7
Registriert: Freitag 21. März 2008, 00:20
Box 1: AX-HD51
Image: NI, Yocto, Openatv, DDT
Box 2: CST-Link
Image: NI, Yocto
Box 3: CST-Neo²
Image: NI, usb-Yocto
Box 4: CST-Neo
Image: NI
Kontaktdaten:

Re: Aufnahme WebTV funktioniert nicht mehr

Beitrag von Knicko »

Nicht immer so pessimistisch Paule. :D
funktioniert wieder. Satbaby thx.
https://github.com/tuxbox-neutrino/gui- ... its/master

gr. Knicko
PauleFoul
Wissender
Wissender
Beiträge: 1839
Registriert: Sonntag 17. August 2003, 00:39

Re: Aufnahme WebTV funktioniert nicht mehr

Beitrag von PauleFoul »

@Knicko
Danke für die Info :wink:


@Satbaby
Danke für das Update! Hast einen gut bei mir :wink:
done
Antworten